<?xml version="1.0" standalone="no"?>
<!DOCTYPE svg PUBLIC "-//W3C//DTD SVG 1.1//EN" "http://www.w3.org/Graphics/SVG/1.1/DTD/svg11.dtd">
<svg xmlns="http://www.w3.org/2000/svg">
    <metadata>Generated by Fontastic.me</metadata>
    <defs>
        <font id="milople-personalizer-tool" horiz-adv-x="512">
            <font-face font-family="milople-personalizer-tool" units-per-em="512" ascent="480" descent="-32"/>
            <missing-glyph horiz-adv-x="512"/>

            <glyph glyph-name="clipart" unicode="&#98;"
                   d="M246 512c-134-6-249-118-246-261 3-139 118-251 256-251 140 1 257 117 256 255 0 141-117 263-266 257z m57-155c1 14 5 26 13 36 12 16 28 16 40 2 8-9 11-19 13-31 0-5 0-10 1-14 0-17-3-32-14-44-12-14-27-15-39-1-12 15-15 33-14 52z m-157 34c11 19 31 19 44 2 16-23 17-61 1-84-12-18-34-18-45 0-8 12-11 26-11 40 0 16 3 30 11 42z m296-150c-2 0-5 0-7 1-5-51-27-92-68-122-35-26-74-37-116-36-44 1-83 16-117 45-34 29-52 66-56 111-3 0-6-2-8-2-3 1-7 2-8 4-1 2 0 7 2 7 7 4 13 7 20 8 6 1 11 0 17-1 4-1 6-4 6-8-1-5-4-5-8-5-6 0-8-2-7-9 11-72 65-117 122-130 57-14 110-2 155 37 29 26 47 58 49 97 1 5-1 7-5 6-6 0-9 2-9 7-1 5 3 7 8 6 9 0 18-1 27-2 4 0 6-3 9-5 3-2 3-6 0-9 0 0-4 0-6 0z"/>
            <glyph glyph-name="clearall" unicode="&#99;"
                   d="M72 204c-5-9-9-15-12-22-29-57-2-101 61-103 28-1 56 0 85 0 0-16 0-31 0-50-40 3-82 1-120 8-69 14-100 71-80 137 6 19 15 37 24 57-6 4-14 9-20 15-13 10-12 20 2 27 24 11 47 21 72 30 15 5 27-3 28-19 1-25 1-49 0-74-1-16-11-21-25-14-5 1-9 5-15 8z m302 215c38 21 42 18 42-25 0-17 1-33 0-50-1-19-13-27-31-21-20 7-41 15-61 24-7 3-17 10-17 16-1 6 8 13 14 19 3 3 7 6 13 10-9 14-17 30-27 43-28 37-72 37-99 0-15-19-26-40-38-61-4-6-7-13-11-20-15 9-27 16-43 26 19 29 35 61 58 88 47 58 114 57 163 2 13-15 24-33 37-51z m-5-341c19 3 35 3 51 7 35 9 53 40 40 74-11 30-27 58-43 89 11 7 24 15 38 24 23-40 50-76 56-122 7-47-18-88-63-106-12-5-26-8-38-11-13-2-26-2-41-4 0-4 0-8-1-13-3-16-14-22-28-14-19 10-38 22-56 34-17 11-16 25 1 37 14 10 29 19 43 28 28 18 37 13 41-23z m-174 58c-12-3-17 3-15 15 4 24 8 50 11 74 0 2 1 3 1 4 38 1 76 2 114 3 1-11 2-23 3-34 2-15 3-30 5-45 1-10-5-15-17-15-1 12-1 24-1 36 0 0-1 0-1 0-2-12-3-24-5-36-3 0-6 1-9 1-3 12-5 26-8 39 0 0-1 0-1 0 0-13 0-27-1-40-4 0-7 0-11 0-1 17-2 34-2 51 0 0-1 0-1 0-3-17-7-34-9-52-2 0-5 0-7 0-2 12-3 24-6 35 0-12 0-24-1-36-3 0-5 0-7 0-3 18-5 35-7 53 0 0-1 0-1 0-2-18-3-35-5-53-3 0-6 0-10 0 0 14-1 28-2 42 0 0-1 0-1 0-1-14-4-28-6-42z m116 110c-42-2-82-3-122-4 0 5 0 11 0 17 0 6 5 10 11 10 4 0 9 0 13 0 2 0 3 0 4 0 10 1 14 6 13 16-2 10-4 21-6 31-3 9-5 18-5 27 0 20 16 36 35 37 19 0 34-15 33-34-1-8-2-16-5-23-4-12-9-25-10-38-2-8 1-12 10-13 6 0 11 0 17 0 9 0 13-4 12-13 0-5 0-9 0-13z m-48 118c-5 5-14 5-20 0-5-6-6-15 0-20 5-6 14-5 19 1 7 5 7 13 1 19z"/>
            <glyph glyph-name="imageupload" unicode="&#100;"
                   d="M448 416l-64 0-64 64-128 0-64-64-64 0c0 0-64 0-64-64l0-192c0-64 64-64 64-64 0 0 90 0 184 0 26-38 70-63 120-63 62 0 114 39 135 94 9 17 9 34 9 34 0 0 0 128 0 192 0 64-64 63-64 63z m-224-251c-37 14-64 49-64 91 0 53 43 96 96 96 30 0 58-15 75-37-61-16-107-73-107-139 0-4 0-7 0-11z m144-99c-61 0-110 49-110 110 0 61 50 110 110 110 61 0 110-50 110-110 0-61-49-110-110-110z m80 126l-64 0 0 64-32 0 0-64-64 0 0-32 64 0 0-64 32 0 0 64 64 0z"/>
            <glyph glyph-name="font-bold" unicode="&#102;"
                   d="M460 237c-20 24-50 40-89 49 27 12 44 21 50 26 14 10 24 22 31 35 8 13 11 27 11 42 0 14-2 28-7 41-4 12-12 24-21 34-11 11-22 19-34 26-12 6-23 10-32 13-23 6-44 9-63 9l-25 0c-5 0-9 0-14 0-4 0-7 0-7 0-1 0-3 0-5 0-2 0-3 0-4 0l-15-1-128-4-86-2 1-28c19-2 31-4 38-4 11-1 19-2 23-5 2-2 4-3 4-4 2-5 3-17 3-36 2-33 2-78 3-135l1-166c0-28-1-49-3-64-1-5-3-11-7-17-10-4-24-8-41-10-5-1-12-3-22-4l-1-32c53 2 83 3 91 3 47 3 80 4 99 4l66-1c26-1 47 0 66 3 29 5 51 12 67 20 17 8 32 20 47 36 11 13 19 26 24 39 6 19 9 37 9 54 1 29-9 56-30 79z m-261 236c17 3 32 4 43 4 38 0 66-8 85-24 19-17 28-38 28-63 0-35-9-60-29-75-20-14-49-21-88-21-15 0-26 1-36 2 0 8-1 16-1 26l1 33c0 35-1 65-2 92-1 8-1 16-1 26z m167-385c-9-16-22-28-41-38-19-9-43-13-72-13-14 0-30 3-47 11-2 6-4 11-4 14l-1 90 1 58 0 48c6 3 17 4 33 4 38 0 65-4 82-11 19-7 34-21 47-42 10-15 14-35 14-60 0-25-4-45-12-61z"/>
            <glyph glyph-name="font-italic" unicode="&#101;"
                   d="M395 511l-185 0c-13 0-24-11-24-24 0-13 11-23 24-23l64 0-84-416-73 0c-13 0-24-10-24-23 0-13 11-24 24-24l185 0c13 0 23 11 23 24 0 13-10 23-23 23l-64 0 83 416 74 0c13 0 23 10 23 23 0 13-11 24-23 24z"/>
            <glyph glyph-name="left-align" unicode="&#103;"
                   d="M18 274l439 0c5 0 9 2 13 6 3 4 6 8 6 13l0 37c0 5-2 9-6 13-4 3-8 5-13 5l-439 0c-5 0-9-1-13-5-3-4-6-8-6-13l0-37c0-5 2-9 6-13 4-4 8-6 13-6z m0 110l330 0c5 0 9 1 13 5 3 4 5 8 5 13l0 37c0 5-1 9-5 13-4 3-8 6-13 6l-330 0c-5-1-9-3-12-7-4-3-6-7-6-12l0-37c0-5 2-9 6-13 3-3 7-5 12-5z m488-261c-3 3-8 5-13 5l-475 0c-5 0-9-1-13-5-3-4-6-8-6-13l0-37c0-5 2-9 6-13 4-3 8-6 13-6l476 0c5 0 9 2 13 6 3 3 6 8 6 13l0 37c-1 5-3 9-7 13z m-488 42l366 0c5 0 9 1 13 5 3 4 6 8 6 13l0 37c0 5-2 9-6 13-3 3-8 6-13 6l-366 0c-5 0-9-2-13-6-3-3-6-8-6-13l0-37c0-5 2-9 6-13 4-4 8-5 13-5z"/>
            <glyph glyph-name="right-align" unicode="&#104;"
                   d="M491 129l-470 0c-5 0-9-1-13-5-4-4-5-8-5-13l0-36c0-5 1-9 5-13 3-3 8-5 12-5l471 0c5 0 9 2 12 5 4 3 5 8 5 13l0 36c0 5-1 9-5 13-3 4-7 5-12 5z m0 109l-362 0c-5 0-9-2-12-6-4-3-5-8-5-12l0-36c0-5 1-9 5-13 3-3 8-6 12-6l362 0c5 0 9 2 13 6 3 4 5 8 5 13l0 36c0 5-2 9-5 12-4 4-8 6-13 6z m0 109l-434 0c-5 0-9-2-13-6-3-3-5-8-5-12l0-36c0-5 2-9 5-13 4-4 8-6 13-6l434 0c5 0 9 2 13 5 3 4 5 8 5 13l0 36c0 5-2 9-5 12-4 5-8 7-13 7z m13 103c-4 3-8 5-13 5l-326 0c-5 0-9-2-12-5-3-3-6-8-6-12l0-37c0-5 2-9 6-12 3-3 8-5 12-5l326 0c5 0 9 2 13 5 3 3 5 8 5 12l0 36c0 5-2 9-5 13z"/>
            <glyph glyph-name="format-text" unicode="&#105;"
                   d="M242 450l125-370 45-14-3-26-166 0 4 24 56 18-36 98-136 0-36-100 60-13-4-27-151 0 3 24 48 18 142 358z m-99-237l114 0-53 162z m182 175c-11 0-24-2-35-5-4-1-5-1-7 3-8 24-16 46-25 69-1 4-1 5 2 6 0 0 1 0 1 0 6 2 13 7 18 5 6-1 6-11 8-17 2-5 2-12 6-15 3-2 9 1 14 1 17 1 17 1 19 18 1 5 2 10 3 15 2 3 4 4 7 4 13-3 26-6 39-8 4-1 6-2 5-7-2-9-3-17-6-25 0-4 0-6 4-7 7-2 13-6 19-10 3-1 5-1 7 2 6 6 11 12 17 19 3 4 5 5 9 1 9-8 18-15 28-23 4-3 5-6 1-10-6-6-11-13-17-19-2-3-3-4-1-7 5-5 9-11 13-18 2-4 4-4 8-2 8 3 16 5 25 8 3 2 5 1 6-3 5-12 9-25 14-37 1-4 0-5-3-6-9-3-17-6-26-9-4-1-5-3-5-7 1-7 2-14 2-20 0-5 2-7 6-7 9-2 18-3 26-5 4-1 6-2 4-6-2-12-4-25-7-37 0-5-2-7-7-5-8 2-17 3-25 5-4 1-6 1-8-4-2-6-6-13-9-18-2-3-1-5 1-7 7-7 14-13 22-19 3-2 3-4 0-6-8-11-17-21-26-32-2-2-4-2-6 0-7 6-15 13-23 19-1 2-3 3-6 1-6-5-12-9-18-13-4-2-3-4-2-7 3-9 6-18 10-27 1-4 1-6-3-7-7-1-13-7-18-5-5 2-5 11-7 16-7 19-13 37-20 56-2 5-1 6 4 8 40 17 65 55 65 98-1 56-45 103-103 106z m70-117c-2-22-16-44-43-58-5-2-7-1-8 4-14 40-29 80-43 120-1 1-1 3-2 4-4 11-4 11 8 14 49 8 90-30 88-84z"/>
            <glyph glyph-name="font-underline" unicode="&#106;"
                   d="M137 147c30-25 71-38 120-38 49 0 88 13 118 38 31 25 45 60 45 106l0 259-93 0 0-260c0-24-6-43-18-55-12-12-29-17-52-17-23 0-41 5-53 17-13 12-19 30-19 54l0 261-94 0 0-260c0-45 16-80 46-105z m-137-74l512 0 0-73-512 0z"/>
            <glyph glyph-name="center-align" unicode="&#107;"
                   d="M509 111l0-36c0-5-1-9-5-13-3-3-8-5-13-5l-470 0c-5 0-9 2-13 5-4 4-5 8-5 13l0 36c0 5 1 9 5 13 3 3 8 5 12 5l471 0c5 0 9-2 13-5 4-4 5-8 5-13z m-380 127c-5 0-9-2-13-6-3-3-5-8-5-12l0-36c0-5 2-9 5-13 4-3 8-6 13-6l254 0c5 0 9 2 12 6 4 4 6 8 6 13l0 36c0 5-2 9-6 12-3 4-8 6-12 6z m-72 36l398 0c5 0 9 2 13 5 3 4 5 8 5 13l0 36c0 5-2 9-5 12-4 4-8 5-13 5l-398 0c-5 0-9-1-13-5-3-3-5-8-5-12l0-36c0-5 2-9 5-13 4-3 8-5 13-5z m108 109l182 0c5 0 9 1 13 5 3 3 5 8 5 12l0 37c0 5-2 9-5 12-4 4-9 6-13 6l-182 0c-5 0-9-2-12-5-3-3-6-8-6-12l0-37c0-5 2-9 6-12 3-5 7-6 12-6z"/>
            <glyph glyph-name="inc-size" unicode="&#108;"
                   d="M509 495c0 8-7 16-16 16l-474 0c-9 0-16-8-16-16l0-88c0-9 7-16 16-16l36 0c5 0 9 3 12 6l27 35 115 0 0-414c0-9 7-16 15-16l64 0c9 0 16 7 16 16l0 413 114 0 27-34c3-4 7-6 12-6l36 0c4 0 9 2 12 5 2 3 4 7 4 11z m-127-417c4-6 11-8 17-6l21 7 0-62c0-4 2-8 4-11 3-3 7-5 12-5l16 0c8 0 16 8 16 16l0 62 20-7c6-2 14 0 18 6 4 5 4 13 0 18l-49 74c-3 4-8 6-13 6-5 0-10-2-13-6l-50-74c-4-5-3-13 1-18z"/>
            <glyph glyph-name="font-face" unicode="&#109;"
                   d="M194 437c-1 4-4 7-8 7l-71 0c-4 0-6-3-8-7l-106-351c-1-4-1-6 1-7 2-2 4-3 7-3l63 0c5 0 7 2 8 6l18 64 106 0 18-64c1-4 3-6 7-6l64 0c2 0 4 0 6 2 2 2 2 3 2 6 0 1 0 2-1 5z m-79-224l36 129 36-129z m371 102c-17 16-41 23-72 23-19 0-37-3-53-10-17-6-31-15-43-28-3-3-4-6-2-10l20-35c2-2 3-3 7-4 2-1 5 0 6 2 17 17 36 25 56 25 26 0 39-12 39-37l0-16c-15 12-34 18-56 18-11 0-21-1-31-5-10-3-18-8-26-16-8-7-15-16-20-27-5-11-7-24-7-39 0-15 2-28 7-38 4-11 11-20 19-28 8-8 17-13 27-17 9-4 20-6 31-6 10 0 21 2 30 5 10 4 19 8 26 14l0-5c0-2 1-4 3-5 1-2 3-3 5-3l51 0c3 0 4 1 6 3 2 1 2 3 2 5l0 167c1 29-8 51-25 67z m-42-177c-8-12-21-19-38-19-11 0-18 4-25 11-6 6-9 15-9 26 0 11 3 20 9 27 7 7 15 10 25 10 5 0 12-1 20-3 7-2 14-8 19-16l0-36z"/>
            <glyph glyph-name="dec-size" unicode="&#110;"
                   d="M446 398c3-4 8-6 13-6l36 0c4 0 8 2 12 5 2 3 4 7 4 11l0 88c0 9-7 17-16 17l-477 0c-10-1-17-8-17-17l0-88c0-9 7-16 17-16l36 0c4 0 9 2 12 6l27 33 115 0 0-415c0-9 7-17 16-17l64 0c9 0 16 7 16 17l0 416 115 0z m61-298c-4 5-11 8-18 5l-20-7 0 62c0 4-2 8-4 11-3 3-7 5-12 5l-16 0c-9 0-16-7-16-16l0-62-21 7c-6 2-14 0-18-5-4-6-4-14 0-19l49-74c3-5 8-7 13-7 6 0 11 3 14 7l50 74c4 6 4 13-1 19z"/>
            <glyph glyph-name="font-bg-color" unicode="&#111;"
                   d="M195 244l88 0-41 125z m-178 267l0-510 478 0 0 510z m384-401l-129 0 3 19 42 14-27 76-104 0-28-77 46-11-2-21-117 0 2 19 37 14 109 276 38 8 97-285 35-11z"/>
            <glyph glyph-name="font-color" unicode="&#112;"
                   d="M300 511l157-460 55-17-3-32-207 0 4 30 69 22-44 122-168 0-45-124 75-17-5-34-188 0 4 30 59 22 177 445z m-122-295l141 0-66 201z"/>
            <glyph glyph-name="add-text" unicode="&#113;"
                   d="M340 433l5-88-11 0c-1 16-5 27-8 33-6 11-12 19-23 23-10 7-22 8-38 8l-53 0 0-284c0-24 3-38 8-42 6-8 17-11 33-11l12 0 0-11-157 0 0 11 12 0c16 0 27 4 33 14 5 6 6 18 6 40l0 283-44 0c-17 0-29 0-37-3-9-3-17-11-25-20-6-10-9-24-11-41l-11 0 5 88z m141-418l0-14-167 0 0 14 19 0c20 0 35 7 45 19 6 8 9 27 9 58l0 328c0 25-1 42-4 52-4 6-8 11-16 15-11 6-22 10-34 10l-19 0 0 14 167 0 0-14-19 0c-20 0-36-7-45-19-6-8-9-27-9-58l0-330c0-26 1-42 4-51 3-6 8-11 16-16 11-6 22-9 34-9l19 0z"/>
            <glyph glyph-name="template" unicode="&#114;"
                   d="M427 165c-20-10-38-19-57-29-36-18-73-36-110-55-2-1-5-1-7 0-55 27-110 55-165 82-1 1-1 1-2 2 0 1 1 3 2 4 8 15 16 30 25 44 2 4 3 7 0 11 8 2 10 8 13 14 42 75 84 151 126 226 1 2 2 5 4 7 5-9 11-18 16-27 38-70 77-139 116-209 2-4 6-8 10-12-2-3 0-6 2-10 9-16 17-32 27-48z m-178 261c-1 0-1 0-1 0-35-61-69-123-104-186 4 2 6 3 9 4 2-5 4-9 6-13-4-2-8-4-12-7-2 4-4 7-6 10-9-16-18-32-27-49 2 1 2 1 3 1 43 22 86 43 129 65 3 1 3 3 3 6 0 39 0 78 0 117 0 17 0 35 0 52z m117-185c1 0 1 0 1 0-34 62-68 124-103 185-1-1-1-1-1-2 0-56 0-112 0-168 0-3 2-4 4-6 42-20 84-41 126-62 1-1 3-2 5-3-9 17-18 33-27 49-2-3-4-6-5-10-5 3-9 5-13 7 2 5 4 9 6 13 3-1 5-2 7-3z m-118-141c0 45 0 90 0 136-45-23-90-45-136-68 46-23 91-46 136-68z m16-1c45 23 90 46 136 69-46 23-91 45-136 68 0-46 0-91 0-137z m-244 59c-7 3-13 6-20 10 7 3 13 6 19 9 7-7 7-9 1-19z m472 19c7-3 13-6 20-9-7-4-13-7-20-10-6 11-6 8 0 19z m-246-132c2 4 4 8 6 12 3 0 5 0 8 0 2-4 4-8 6-12-8-6-10-6-20 0z m-113 73c-2-5-4-9-7-13-4 2-8 4-13 6 2 4 4 9 7 13 4-2 8-4 13-6z m266-7c-5-2-9-4-13-6-2 4-4 8-7 13 5 2 9 4 13 6 3-4 5-8 7-13z m-312 100c4 2 8 4 13 6 2-4 4-8 6-13-4-2-8-4-13-6-2 4-4 8-6 13z m339 0c-3-5-5-9-7-13-4 2-9 4-13 6 2 5 4 9 6 13 5-2 9-4 14-6z m-359-27c-3 5-5 9-7 14 4 2 8 4 13 6 2-4 4-8 7-13-5-2-9-4-13-7z m372 20c5-2 9-4 13-6-2-5-4-9-7-14-4 3-8 5-13 7 3 5 5 9 7 13z m-386-46c-2-5-4-9-6-13-5 2-9 4-14 6 3 4 5 9 7 13 4-2 9-4 13-6z m406 0c5 2 9 4 13 6 2-4 4-8 7-13-5-2-9-4-13-6-3 4-5 8-7 13z m-20-27c-2 5-4 9-7 13 5 2 9 5 13 7 3-4 5-8 7-13-4-2-8-4-13-7z m-333 0c-2-4-4-8-6-13-5 2-9 4-13 6 2 5 4 9 6 14 5-3 9-5 13-7z m313 7c2-5 4-9 6-13-4-3-8-5-13-7-2 4-4 8-6 13 4 2 8 4 13 7z m-372 53c2-5 4-9 6-13-4-2-8-4-13-7-2 5-4 9-7 13 5 3 9 5 14 7z m232-140c-2 5-4 9-6 14 4 2 8 4 13 6 2-4 4-8 6-13-4-2-8-4-13-7z m20 27c5 2 9 4 13 6 3-4 5-8 7-13-4-2-8-4-13-6-2 4-4 8-7 13z m-86 0c-3-5-5-9-7-13-4 2-9 4-13 6 2 5 4 9 7 13 4-2 8-4 13-6z m126 20c2-5 4-9 7-13-5-3-9-5-13-7-3 4-5 9-7 13 4 2 8 4 13 7z m-166 0c5-3 9-5 13-7-2-4-4-8-7-13-4 2-8 4-13 7 3 4 5 8 7 13z m180 6c4 3 8 5 13 7 2-4 4-8 6-13-4-2-8-4-13-7-2 5-4 9-6 13z m-200-13c-5 3-9 5-13 7 2 4 4 8 6 13 5-2 9-4 14-7-3-4-5-8-7-13z m86-26c-2-5-4-9-6-14-5 3-9 5-13 7 2 5 4 9 6 13 5-2 9-4 13-6z m-172 86c4-2 8-4 13-7-3-4-5-8-7-13-4 2-8 4-13 7 2 4 4 8 7 13z m399 40c4-2 8-4 13-7-2-4-5-8-7-13-4 2-9 4-13 7 2 4 4 8 7 13z m-260 80c2-5 4-9 7-13-5-3-9-5-13-7-3 4-5 9-7 13 4 2 9 4 13 7z m-20-27c-5-2-9-4-13-6-2 4-4 8-7 13 5 2 9 4 13 6 3-4 5-8 7-13z m53 27c-4-3-8-5-13-7-2 5-4 9-6 13 4 3 8 5 13 7 2-4 4-9 6-13z m74-20c-5 2-9 4-14 6 3 5 5 9 7 14 4-3 9-5 13-7-2-4-4-9-6-13z m20 6c4-2 8-4 13-6-3-5-5-9-7-13-4 2-8 4-13 6 2 4 4 9 7 13z m-60 14c2 4 4 8 6 13 5-2 9-4 14-7-3-4-5-8-7-13-5 3-9 5-13 7z"/>
            <glyph glyph-name="anticlock" unicode="&#115;"
                   d="M278 506c3-1 8-1 11-2 25-2 48-10 70-19 22-10 42-23 60-38 22-20 42-42 56-68 14-23 22-47 27-73 5-23 6-45 4-68-1-16-5-30-8-46-1-6-2-6-8-4-17 5-33 9-50 14-5 1-6 2-4 8 5 20 7 41 5 63-1 20-6 39-14 57-7 16-16 32-27 46-12 14-27 28-45 39-20 11-39 20-61 24-9 2-18 3-27 3-21 1-40 0-60-6-16-4-32-11-45-19-4-2-7-4-10-5 20-22 39-42 58-62-66-17-135-35-205-53 17 69 34 138 51 208 2-2 4-3 6-5 13-14 27-28 40-41 2-2 3-2 7 0 25 18 51 32 80 39 15 4 29 7 44 8 0 0 1 1 1 1 15-1 29-1 44-1z m202-364c-11-21-25-42-43-59-16 15-30 30-45 43 7 10 15 20 21 30 4 4 6 9 8 12 1 1 4 2 4 2 18-10 36-19 55-28z m-163-64c16 8 32 17 49 25 3-5 7-9 11-15 8-11 16-21 24-33 2-2 1-3-1-5-17-13-36-22-55-30-6-2-6-2-8 5-8 18-14 36-20 53z m-207-26c12 18 24 35 35 52 17-9 33-17 50-26-7-19-14-38-22-58-11 1-37 15-63 32z m174 19c2-20 5-42 8-63-25-3-49-3-73 0 3 11 4 24 6 35 1 8 2 17 5 25 0 1 2 2 4 2 11 0 23-1 35-1 3 1 9 1 15 2z m-186 85c5-7 10-14 15-20 3-2 4-4 6-5 3-2 2-5 0-7-9-8-18-16-27-24-5-4-9-9-14-13-1-1-4-1-4 0-9 10-17 21-26 31-2 3-1 5 1 6 16 9 33 20 49 32z"/>
            <glyph glyph-name="clock" unicode="&#117;"
                   d="M234 506c-3-1-8-1-11-2-25-2-48-10-70-19-22-10-42-23-60-38-22-20-42-42-56-68-14-23-22-47-27-73-5-23-6-45-4-68 1-16 5-30 8-46 1-6 2-6 8-4 17 5 33 9 50 14 5 1 6 2 4 8-5 20-7 41-5 63 1 20 6 39 14 57 7 16 16 32 27 46 14 15 28 30 46 40 20 11 39 20 61 24 9 2 18 3 27 3 21 1 40 0 60-5 16-5 32-12 45-20 4-2 7-4 10-5-20-22-39-42-58-62 67-17 136-35 206-52-19 67-36 136-53 206-2-2-4-3-7-5-13-14-27-28-40-41-2-2-4-2-7 0-25 18-51 32-80 39-15 4-29 7-44 8 0 0-1 1-1 1-14-1-28-1-43-1z m-202-364c11-21 25-42 43-59 16 15 30 30 45 43-7 10-15 20-21 30-4 3-6 8-8 12-1 1-4 2-4 2-19-10-36-19-55-28z m163-64c-16 8-32 17-49 25-3-5-7-9-11-15-8-11-16-21-24-33-2-2-1-3 1-5 17-13 36-22 55-30 6-2 6-2 8 5 7 18 14 36 20 53z m206-26c-13 18-24 35-35 52-17-9-33-17-50-26 7-19 14-38 22-58 12 1 37 15 63 32z m-173 19c-2-20-5-42-8-63 25-3 49-3 73 0-3 11-4 24-6 35-1 8-2 17-5 25 0 1-2 2-4 2-11 0-23-1-35-1-3 1-9 1-15 2z m185 85c-5-7-10-14-15-20-3-2-4-4-6-5-4-2-2-5 0-7 9-8 18-16 27-24 4-4 9-9 13-13 2-1 5-1 5 0 9 10 17 21 26 31 2 3 1 5-1 6-16 9-32 20-49 32z"/>
            <glyph glyph-name="close" unicode="&#118;"
                   d="M512 271c0-10 0-20 0-31-1-6-2-12-2-18-3-23-9-45-19-66-12-29-29-54-50-77-17-17-35-32-56-44-30-17-62-29-96-33-6 0-12-1-17-2-11 0-21 0-32 0 0 0-1 1-2 1-26 2-51 7-76 17-28 11-53 27-76 47-21 18-39 40-52 64-17 29-27 60-32 93 0 6-1 12-2 18 0 11 0 21 0 32 0 1 1 2 1 3 2 13 3 26 6 38 9 43 29 80 58 113 16 18 34 34 55 47 32 19 65 32 102 37 6 0 12 1 18 2 11 0 21 0 32 0 0 0 1-1 2-1 13-2 26-3 39-6 43-9 80-29 113-58 21-18 38-40 52-64 17-29 27-60 32-93 0-6 1-12 2-19z m-279-15c-8-7-16-15-23-22-24-24-48-48-72-72-7-7-7-18-1-25 7-6 18-6 25 1 11 11 22 22 34 33 14 14 28 28 42 43 6 5 11 11 17 18 13-15 25-28 37-42 16-17 31-35 47-52 5-5 10-7 17-5 7 2 11 7 12 14 1 6-1 11-5 16-8 8-15 15-22 23-14 16-28 32-42 48-7 7-13 14-20 22 6 6 13 12 19 18 25 25 51 51 76 76 7 7 7 18 1 25-7 7-18 6-25-1-9-9-19-18-28-28-17-17-35-35-53-53-4-4-8-8-12-12-1 1-2 2-3 3-16 18-32 36-49 54-10 12-21 23-31 35-5 6-11 8-19 6-7-3-11-8-11-15-1-6 2-11 5-15 8-8 15-16 23-24 12-14 25-28 37-43 8-8 16-17 24-26z"/>
            <glyph glyph-name="delete" unicode="&#119;"
                   d="M214 512c27 0 57 0 84 0 0 0 2 0 2 0 32-7 50-30 54-59 0-5 0-12 0-17 3 0 5 0 5 0 23 0 47 0 69 0 15 0 22-8 22-22 0-5 0-13 0-18 8 0 13 0 20 0 0-12 0-27 0-39-12 0-27 0-39 0 0-3 0-5 0-7 0-79 0-156 0-234 0-18 0-37 0-54 0-23-10-42-32-52-8-5-15-5-22-8-82 0-165 0-247 0 0 0-2 0-2 0-10 0-20 5-27 13-17 12-25 29-25 49 0 96 0 190 0 286 0 2 0 4 0 7-12 0-27 0-39 0 0 12 0 25 0 39 7 0 12 0 20 0 0 8 0 13 0 18 0 14 7 22 22 22 22 0 47 0 69 0 2 0 5 0 5 0 0 2 0 5 0 7 0 30 12 52 39 67 10 0 15 0 22 2z m180-158c-94 0-185 0-276 0 0-2 0-2 0-4 0-96 0-192 0-288 0-15 8-23 22-23 77 0 155 0 232 0 10 0 17 5 22 13 0 2 2 7 2 12 0 96 0 190 0 286-2 0-2 2-2 4z m-81 79c5 22-10 40-32 40-18 0-35 0-55 0-22 0-34-18-32-40 42 0 82 0 119 0z m-77-354c0 79 0 157 0 236 13 0 25 0 40 0 0-79 0-157 0-236-15 0-27 0-40 0z m-39 0c-12 0-25 0-39 0 0 79 0 157 0 236 12 0 24 0 39 0 0-79 0-157 0-236z m118 236c12 0 25 0 39 0 0-79 0-157 0-236-12 0-24 0-39 0 0 79 0 157 0 236z"/>
            <glyph glyph-name="done" unicode="&#120;"
                   d="M256 512c-141 0-256-115-256-256 0-142 115-256 256-256 142 0 256 114 256 256 0 141-115 256-256 256z m135-198c-55-55-111-111-166-167-12-12-18-11-29 1-29 30-58 59-88 88-9 8-9 13 0 21 9 8 16 18 21 25 11-1 13-5 17-8 18-19 37-37 55-56 8-8 12-7 20 1 49 49 98 98 147 147 10 11 15 10 24 0 25-26 25-26-1-52z"/>
            <glyph glyph-name="duplicate" unicode="&#121;"
                   d="M210 55c-57 0-115 0-173 0-10 0-19 3-26 11-7 7-11 15-11 25 0 58 0 116 0 174 0 21 0 43 0 64 0 17 12 33 30 36 2 1 5 1 7 1 116 0 231 0 347 0 19 0 34-14 36-33 1-2 0-3 0-4 0-79 0-158 0-237 0-19-13-34-32-37-2 0-3 0-5 0-58 0-115 0-173 0z m9 128c1 0 2 0 3 0 17 0 34 0 51 0 2 0 3 0 5 0 10 2 17 12 14 22-2 9-9 14-18 14-18 0-35 0-52 0-1 0-2 0-3 0 0 1 0 2 0 3 0 17 1 35 0 53 0 10-9 18-19 17-10 0-17-8-17-18 0-18 0-35 0-53 0 0 0-1 0-2-1 0-2 0-3 0-17 0-35 0-53 0-10 0-18-9-17-19 1-10 8-17 19-17 17 0 34 0 52 0 0 0 1 0 2 0 0-1 0-2 0-2 0-18 0-36 0-53 0-12 11-20 22-18 9 2 14 9 14 18 0 18 0 35 0 53 0 0 0 1 0 2z m238-55c0 1 0 2 0 3 0 78 0 156 0 234 0 8-2 15-6 22-7 9-16 14-28 15-2 0-4 0-6 0-108 0-215 0-323 0-1 0-1 0-2 0 0 1 0 1 0 1 0 7 0 13 0 19 0 17 13 32 30 35 2 0 4 0 7 0 115 0 230 0 346 0 17 0 33-12 36-30 1-2 1-5 1-7 0-85 0-170 0-255 0-17-11-32-27-36-3 0-6-1-9-1-6 0-11 0-17 0 0 0-1 0-2 0z"/>
            <glyph glyph-name="open" unicode="&#122;"
                   d="M219 172c0 12 0 25 0 38 1 8-2 10-10 10-24-1-48 0-73-1-8 0-11 3-11 11 1 17 1 35 0 53 0 8 3 10 11 10 23-1 47 0 70-1 10 0 14 2 13 13 0 24 0 48 0 73 0 6 1 9 8 9 19 0 38 0 57 0 7 0 9-2 9-8 0-26 0-51 0-76-1-8 2-11 10-10 24 0 48-1 72 0 9 0 12-3 11-11 0-18 0-35 0-52 0-8-2-11-10-10-24 0-48-1-72 0-10 0-12-3-12-12 1-24 0-48 1-72 0-8-2-11-10-10-18 0-36 0-55 0-7-1-9 2-9 9 1 12 0 24 0 37z m37 340c-141 0-256-115-256-256 0-141 115-256 256-256 141 0 256 115 256 256 0 141-115 256-256 256z m0-461c-113 0-205 92-205 205 0 113 92 205 205 205 113 0 205-92 205-205 0-113-92-205-205-205z"/>
            <glyph glyph-name="vertical-flip" unicode="&#66;"
                   d="M367 496l-335 0 169-186z m-166-337l102-114-204 0 102 114m0 43l-166-186 332 0z m308 18c0 3 0 3 0 5 3 12 3 27 3 38 0 12-3 26-9 38-6 15-14 29-26 41-9 11-20 17-32 26-9 3-20 9-32 12-9 3-17 3-23 3-3 0-3 0-3-3 0-9 0-18 0-27 0-2 0-2 3-2 11 0 23-3 32-9 9-3 17-9 26-18 6-5 12-14 17-20 6-9 12-20 12-29 3-12 3-23 3-35 0-6 0-9-3-15-3-11-6-20-12-29-5-5-11-14-17-20-3 0-3-3-6-3-6 15-14 26-20 41-21-32-41-64-61-96 38-3 75-6 113-9 0 3 0 3-3 3-6 9-8 17-14 26 0 0 0 3 0 3 11 9 23 20 32 35 3 6 8 15 11 20 6 9 6 18 9 24z m-160 67l58 0 0-59-58 0z m-87 0l58 0 0-59-58 0z m-87 0l58 0 0-59-58 0z m-88 0l58 0 0-59-58 0z m-87 0l58 0 0-59-58 0z"/>
            <glyph glyph-name="horizontal-flip" unicode="&#116;"
                   d="M16 364l0-332 186 166z m451-64l0-201-114 102 114 99m29 64l-186-166 186-166z m-204 145c-3 0-3 0-5 0-15 3-27 3-38 3-12 0-26-3-38-9-15-6-29-14-41-26-9-9-17-20-23-32-6-12-12-23-15-35-3-6-3-14-3-23 0-3 0-3 3-3 9 0 18 0 27 0 2-3 2-3 2 3 0 12 3 23 9 32 3 9 9 17 18 26 5 6 14 12 20 18 9 5 20 11 29 11 12 3 23 6 35 3 6 0 9 0 15-3 11-3 20-6 29-11 5-6 14-12 20-18 0-3 3-3 3-6-15-6-26-14-41-20 32-20 64-41 96-61 3 38 6 75 9 113-3 0-3 0-3-3-9-5-17-8-26-14 0 0-3 0-3 0-9 11-20 23-35 32-6 3-15 9-20 11-9 6-18 9-24 12z m-67-102l59 0 0-58-59 0z m0-87l59 0 0-58-59 0z m0-90l59 0 0-58-59 0z m0-87l59 0 0-59-59 0z m0-88l59 0 0-58-59 0z"/>
            <glyph glyph-name="send-back" unicode="&#65;"
                   d="M269 377l0-117-134 0 0-125 125 0 0 111 117 0 0 131z m-269 135l0-269 269 0 0 269z m243-243l-214 0 0 214 214 0z m0 0l0-269 269 0 0 269z m240-240l-214 0 0 214 214 0z"/>
            <glyph glyph-name="bring-front" unicode="&#67;"
                   d="M377 269l0 108-108 0 0 135-269 0 0-269 135 0 0-105 105 0 0-135 269 0 0 266z m-348 0l0 214 214 0 0-106-108 0 0-105-106 0z m454-240l-214 0 0 106 105 0 0 108 106 0 0-214z"/>
            <glyph glyph-name="top-left" unicode="&#68;"
                   d="M412 0l-276 281 0-226-136 136 0 321 321 0 136-136-226 0 281-276z"/>
            <glyph glyph-name="top-center" unicode="&#69;"
                   d="M205 0l0 307-126-126 0 154 177 177 177-177 0-154-122 126 0-307z"/>
            <glyph glyph-name="top-right" unicode="&#70;"
                   d="M0 100l276 276-221 0 136 136 321 0 0-321-136-136 0 226-281-281z"/>
            <glyph glyph-name="right" unicode="&#71;"
                   d="M0 307l307 0-122 126 150 0 177-177-177-177-150 0 122 122-307 0z"/>
            <glyph glyph-name="bottom-right" unicode="&#72;"
                   d="M95 512l281-276 0 221 136-136 0-321-321 0-136 136 221 0-276 281z"/>
            <glyph glyph-name="bottom-center" unicode="&#73;"
                   d="M311 512l0-307 122 122 0-150-177-177-177 177 0 150 126-122 0 307z"/>
            <glyph glyph-name="bottom-left" unicode="&#74;"
                   d="M512 417l-281-281 226 0-136-136-321 0 0 321 136 136 0-221 276 276z"/>
            <glyph glyph-name="left" unicode="&#75;"
                   d="M512 201l-307 0 126-122-154 0-177 177 177 177 154 0-126-126 307 0z"/>
            <glyph glyph-name="center" unicode="&#76;"
                   d="M512 256c-13-10-26-19-39-29-19-16-39-33-61-49-4-3-7-3-10-6-3-3-7 0-10 3 0 3 0 6 0 6 0 17 0 30 0 46 0 3 0 3 0 6-39 0-78 0-113 0 0-39 0-74 0-113 3 0 3 0 6 0 16 0 29 0 46 0 3 0 3 0 6 0 10 0 10-7 6-13-3-7-6-10-9-13-23-26-42-55-65-81-10-13-10-10-19 0-23 29-46 58-72 87-3 4-3 7-6 10-3 3 0 7 6 10 3 0 3 0 7 0 16 0 32 0 48 0 0 39 0 78 0 113-39 0-74 0-113 0 0 0 0-3 0-6 0-16 0-29 0-46 0-3 0-3 0-6 0-6-7-10-13-6-7 3-10 6-16 9-29 26-55 46-81 68 0 0 0 0-4 4-9 6-9 9 0 16 33 22 62 48 91 71 3 3 10 6 16 3 7-3 4-9 4-13 0-16 0-32 0-48 39 0 77 0 113 0 0 39 0 74 0 113-3 0-6 0-10 0-13 0-26 0-39 0 0 0-3 0-3 0-9 0-13 7-6 16 3 7 9 13 13 20 22 26 42 52 61 78 4 3 4 3 7 6 0 0 3 0 3 0 3-3 6-6 10-10 22-29 48-61 71-90 3-4 3-7 3-10 0-3 0-7-3-10-3 0-6 0-6 0-17 0-30 0-46 0-3 0-3 0-6 0 0-39 0-78 0-113 39 0 77 0 113 0 0 16 0 32 0 48 0 4 0 4 0 7 0 6 3 6 10 6 3 0 6-3 10-6 16-13 35-26 51-42 17-13 33-26 46-39 3 3 3 3 3 3z"/>
            <glyph glyph-name="name-and-number" unicode="&#97;"
                   d="M121 407l0 67 19 0 26-40 0 40 18 0 0-67-20 0-25 40 0-40z m69 0l24 69 22 0 26-69-21 0-3 12-24 0-3-12z m36 52l-8-25 15 0z m38-52l9 67 19 0 12-42 12 42 20 0 9-67-18 0-5 39-12-39-12 0-12 39-4-39z m88 0l0 67 41 0 0-16-23 0 0-9 20 0 0-15-20 0 0-11 23 0 0-16z m-206-75l-25 0 0 37 51 14 36 0 0-345-62 0z m185 0l-28 0 0-59 48 0 39-36 0-145-41-54-67 0-40 54 0 252 41 39 68 0 42-39 0-47-60 0 0 35z m0-110l-28 0 0-118 27 0 0 118z"/>
            <glyph glyph-name="clearall-1" unicode="&#77;"
                   d="M118 482c7 25 14 30 41 30 46 0 94 0 141 0 26 0 33-5 42-30 23 0 46 0 68 0 19 0 32-7 37-23 4-18 7-36-9-50-9-7-14-16-25-27 0 23 0 43 0 62-25 0-48 0-71 0-12-26-16-30-48-30-44 0-89 0-133 0-29 0-34 4-43 30-23 0-46 0-71 0 0-135 0-270 0-407 121 0 242 0 365 0 0 6 0 11 0 16 0 47 0 93 0 139 0 16 1 27 16 37 7 6 12 13 19 22 0-7 2-11 2-15 0-65 0-131 0-197 0-25-14-39-39-39-119 0-240 0-359 0-27 0-41 14-41 39 0 135 0 269 0 404 0 25 14 39 39 39 23 0 46 0 69 0z m39-7c0-9 0-16 0-23 48 0 96 0 144 0 0 8 0 16 0 23-48 0-96 0-144 0z m93-343c18 17 34 35 50 53 0 0-2 2-2 2-7-6-14-13-22-18-3-4-7-5-10-9-27-23-27-23-57-2 19 14 39 27 59 41 0 2-2 2-2 4-18-9-36-16-54-25-14-9-28-11-42 0-6 3-13 5-22 10 13 6 22 9 31 11 51 20 105 37 156 59 16 7 20-6 29-13 7-5 12-12 7-23-18-46-36-94-54-140-1 0-3 2-5 2-21 16-21 16-11 40 4 11 9 20 11 32-9-16-20-30-30-46-11 6-20 13-32 22z m135 122c-5 6-13 13-16 16 28 38 57 73 83 109 8 9 16 14 25 9 9-6 20-16 23-25 2-6-3-18-10-23-13-11-27-18-39-29-22-18-43-35-66-57z"/>
            <glyph glyph-name="right-t" unicode="&#78;" d="M128 512l0-512 256 246z"/>
            <glyph glyph-name="left-t" unicode="&#79;" d="M384 512l0-512-256 246z"/>
            <glyph glyph-name="add" unicode="&#80;"
                   d="M256 512c-142 0-256-114-256-256 0-142 114-256 256-256 142 0 256 114 256 256 0 142-114 256-256 256z m113-268l-102 0 0-108-22 0 0 108-102 0 0 25 102 0 0 108 22 0 0-108 102 0z"/>
            <glyph glyph-name="remove" unicode="&#81;"
                   d="M256 512c-142 0-256-114-256-256 0-142 114-256 256-256 142 0 256 114 256 256 0 142-114 256-256 256z m77-272l-155 0 0 32 155 0z"/>
            <glyph glyph-name="back" unicode="&#82;"
                   d="M256 512c-141 0-256-115-256-256 0-141 115-256 256-256 141 0 256 115 256 256 0 141-115 256-256 256z m0-489c-129 0-233 104-233 233 0 129 104 233 233 233 129 0 233-104 233-233 0-129-104-233-233-233z m47 306l0-147-139 72z"/>
        </font>
</defs>
</svg>
